电影烧包

 找回密码
 注册猛戳我
查看: 782887|回复: 9
收起左侧

[中国香港] [天马修复][愿望树.喜剧爱情.无水印][Final.Romance.2001.WEB-DL.1080p.H264.AAC.ts][国语无字/2.66G]

[复制链接]
  • TA的每日心情
    无聊
    13 小时前
  • 签到天数: 28 天

    连续签到: 28 天

    [LV.4]偶尔看看III

    50

    主题

    94

    帖子

    0

    精华

    钻石发帖员

    Rank: 8Rank: 8Rank: 8Rank: 8Rank: 8Rank: 8Rank: 8Rank: 8

    发表于 2018-10-12 19:21:22 | 显示全部楼层 |阅读模式


                                   
    登录/注册后可看大图

    ◎译  名 愿望树
    ◎片  名 願望樹
    ◎年  代 2001
    ◎产  地 香港
    ◎类  别 剧情 / 喜剧 / 爱情
    ◎语  言 粤语
    ◎上映日期 2001-10-28(香港)
    ◎IMDb评分 6.7/10 from 50人评价
    ◎IMDb链接 http://www.imdb.com/title/tt0295258
    ◎豆瓣评分 6.9/10 from 2,595人评价
    ◎豆瓣链接 https://movie.douban.com/subject/1306921
    ◎片  长 97分钟
    ◎导  演 麦兆辉
    ◎主  演 陈冠希 / 欧倩怡 / 李灿森 / 阿曼达·斯特朗

    ◎简  介

      主演AmanDa Strang是一位中法混血美女,也是广告商的宠儿。
      Jean(Amanda 饰)的姐姐Macy与阿迪的哥哥(陈冠希 饰)相恋,却遭到家人反对。两人相约在雪山上相见,Macy等待数月却不见男友踪影,终于支持不住,临死前留下遗嘱希望在2001年情人节前,妹妹将自己的骨灰带上山。其实男友在赴约当日途中在公路上失事,而他的弟弟阿迪(陈冠希 饰)也有着和Jean相同的任务。因为他们早已订下婚盟,要赶在2001年情人节当天举行婚礼。阿迪对自己生活感到茫然,终日飞车度日,每天早上帮父亲送报。Jean从小有心脏病,又沉浸在失去姐姐的悲痛中。两人通往雪山的路上相遇,哥哥姐姐的事将两人距离拉近,而在一次雪崩意外中,更令两人擦出爱的火花。命运弄人,Jean父亲的到来,立刻为这份感情蒙上阴影,而他们又将重踏哥哥姐姐的同样的宿命吗?
    General
    Complete name                  : 愿望树 天马.ts
    Format                         : MPEG-4
    Format profile                 : Base Media
    Codec ID                       : isom (isom/iso2/avc1/mp41)
    File size                      : 2.66 GiB
    Duration                       : 1 h 35 min
    Overall bit rate mode          : Variable
    Overall bit rate               : 4 005 kb/s
    Writing application            : Lavf57.25.100
    FileExtension_Invalid          : mov mp4 m4v m4a m4b m4p 3ga 3gpa 3gpp 3gp 3gpp2 3g2 k3g jpm jpx mqv ismv isma ismt f4a f4b f4v

    Video
    ID                             : 1
    Format                         : AVC
    Format/Info                    : Advanced Video Codec
    Format profile                 : High@L5.1
    Format settings                : CABAC / 4 Ref Frames
    Format settings, CABAC         : Yes
    Format settings, ReFrames      : 4 frames
    Codec ID                       : avc1
    Codec ID/Info                  : Advanced Video Coding
    Duration                       : 1 h 35 min
    Bit rate                       : 3 872 kb/s
    Width                          : 1 920 pixels
    Height                         : 1 080 pixels
    Display aspect ratio           : 16:9
    Frame rate mode                : Variable
    Frame rate                     : 25.000 FPS
    Minimum frame rate             : 5.051 FPS
    Maximum frame rate             : 1 000.000 FPS
    Color space                    : YUV
    Chroma subsampling             : 4:2:0
    Bit depth                      : 8 bits
    Scan type                      : Progressive
    Bits/(Pixel*Frame)             : 0.075
    Stream size                    : 2.57 GiB (97%)

    Audio
    ID                             : 2
    Format                         : AAC
    Format/Info                    : Advanced Audio Codec
    Format profile                 : LC
    Codec ID                       : mp4a-40-2
    Duration                       : 1 h 35 min
    Bit rate mode                  : Variable
    Bit rate                       : 126 kb/s
    Maximum bit rate               : 133 kb/s
    Channel(s)                     : 2 channels
    Channel positions              : Front: L R
    Sampling rate                  : 44.1 kHz
    Frame rate                     : 43.066 FPS (1024 SPF)
    Compression mode               : Lossy
    Stream size                    : 85.3 MiB (3%)
    Default                        : Yes
    Alternate group                : 1




                                   
    登录/注册后可看大图


                                   
    登录/注册后可看大图


                                   
    登录/注册后可看大图


                                   
    登录/注册后可看大图


                                   
    登录/注册后可看大图


                                   
    登录/注册后可看大图


                                   
    登录/注册后可看大图



    购买主题 已有 4 人购买  本主题需向作者支付 10 张车票 才能浏览

    帖子地址: 

    本帖地址:http://www.f-fans.club/thread-9170-1-1.html

    1、本网站所有资源均来自网络, 仅用于会员之间兴趣交流, 下载保存后请在24小时之内删除, 如有侵权, 我们会第一时间删除侵权内容

    3、网站长期高薪聘请压制人员, 对压制有兴趣的朋友可以联系QQ: 1028336985

  • TA的每日心情
    开心
    15 小时前
  • 签到天数: 28 天

    连续签到: 28 天

    [LV.4]偶尔看看III

    98

    主题

    1355

    帖子

    0

    精华

    飞机驾驶员

    Rank: 8Rank: 8Rank: 8Rank: 8Rank: 8Rank: 8Rank: 8Rank: 8

    发表于 2018-10-12 19:25:59 | 显示全部楼层
    这个价格太良心了 感谢分享楼主太棒了 谢谢分享
    该会员没有填写今日想说内容.
    回复 支持 反对

    使用道具 举报

  • TA的每日心情
    无聊
    9 小时前
  • 签到天数: 28 天

    连续签到: 28 天

    [LV.4]偶尔看看III

    1

    主题

    635

    帖子

    0

    精华

    年度VIP

    Rank: 7Rank: 7Rank: 7Rank: 7Rank: 7Rank: 7Rank: 7

    发表于 2018-10-12 19:30:46 | 显示全部楼层
    楼主简直比抠脚还要帅
    哎...今天够累的,签到来了4...
    回复 支持 反对

    使用道具 举报

  • TA的每日心情
    开心
    3 分钟前
  • 签到天数: 28 天

    连续签到: 28 天

    [LV.4]偶尔看看III

    0

    主题

    1558

    帖子

    0

    精华

    火车司机

    Rank: 6Rank: 6Rank: 6Rank: 6Rank: 6Rank: 6

    发表于 2018-10-12 20:08:03 | 显示全部楼层
    这才是大家喜欢的陈冠希。
    哎...今天够累的,签到来了1...
    回复 支持 反对

    使用道具 举报

  • TA的每日心情
    擦汗
    2018-11-9 15:56
  • 签到天数: 17 天

    连续签到: 1 天

    [LV.4]偶尔看看III

    157

    主题

    468

    帖子

    8

    精华

    飞机驾驶员

    Rank: 8Rank: 8Rank: 8Rank: 8Rank: 8Rank: 8Rank: 8Rank: 8

    发表于 2018-10-12 21:14:29 | 显示全部楼层
    咪咕视频TV端的都烂了还卖那么贵
    该会员没有填写今日想说内容.
    回复 支持 反对

    使用道具 举报

  • TA的每日心情
    奋斗
    14 小时前
  • 签到天数: 29 天

    连续签到: 29 天

    [LV.4]偶尔看看III

    65

    主题

    282

    帖子

    0

    精华

    钻石发帖员

    Rank: 8Rank: 8Rank: 8Rank: 8Rank: 8Rank: 8Rank: 8Rank: 8

    发表于 2018-10-12 21:56:20 | 显示全部楼层
    冠希哥,人生赢家。
    哎...今天够累的,签到来了3...
    回复 支持 反对

    使用道具 举报

  • TA的每日心情
    无聊
    3 小时前
  • 签到天数: 26 天

    连续签到: 1 天

    [LV.4]偶尔看看III

    16

    主题

    706

    帖子

    0

    精华

    年度VIP

    Rank: 7Rank: 7Rank: 7Rank: 7Rank: 7Rank: 7Rank: 7

    发表于 2018-10-13 10:06:49 | 显示全部楼层
    楼主资源不错 多多发好资源
    哎...今天够累的,签到来了8...
    回复 支持 反对

    使用道具 举报

  • TA的每日心情
    开心
    前天 15:55
  • 签到天数: 8 天

    连续签到: 2 天

    [LV.3]偶尔看看II

    0

    主题

    241

    帖子

    0

    精华

    轿车司机

    Rank: 3Rank: 3Rank: 3

    发表于 2018-10-13 12:28:19 | 显示全部楼层
    多谢分享
    开心每一天
    回复

    使用道具 举报

  • TA的每日心情
    奋斗
    15 小时前
  • 签到天数: 27 天

    连续签到: 20 天

    [LV.4]偶尔看看III

    0

    主题

    1686

    帖子

    0

    精华

    月度VIP

    Rank: 5Rank: 5Rank: 5Rank: 5Rank: 5

    发表于 2018-10-14 10:10:28 | 显示全部楼层
    楼主简直比抠脚还要帅
    哎...今天够累的,签到来了5...
    回复 支持 反对

    使用道具 举报

  • TA的每日心情
    无聊
    前天 00:53
  • 签到天数: 23 天

    连续签到: 3 天

    [LV.4]偶尔看看III

    0

    主题

    235

    帖子

    0

    精华

    轿车司机

    Rank: 3Rank: 3Rank: 3

    发表于 2018-10-19 13:16:30 | 显示全部楼层
    不错的电影,谢谢分享
    该会员没有填写今日想说内容.
    回复 支持 反对

    使用道具 举报

    您需要登录后才可以回帖 登录 | 注册猛戳我

    本版积分规则

    QQ|电影烧包资源平台   

    GMT+8, 2018-11-17 15:29 , Processed in 0.071096 second(s), 26 queries , Memcache On.

    Powered by Discuz! X3.3

    © 2001-2013 Comsenz Inc.. 技术支持 by 巅峰设计

    快速回复 返回顶部 返回列表